5 months ago


Only God Forgives 720p 12



Download | Watch

Only God Forgives 720p 12

Only God Forgives. Advertising . IMDb link: . Only God Forgives 2013 720p BluRay H264 AAC-RARBG Posted by z0n321 in Movies > Highres Movies. . 12; Please request .



FOREIGN pts.ONLY: English: Only.God.Forgives.2013.720p.BluRay.x264.YIFY-Thai.Only: 2 . Sync dengan Only God Forgives.WEB.DL.720p versi 650MB.Sub bahasa melayu .



Only God Forgives subtitles. AKA: . Time to Meet The Devil.



Download Only God Forgives 2013 BluRay 1080p 10bit 5.1 x265 HEVC-Qman . Stream size : 170 MiB (12%) Language . Only God Forgives 2013 LIMITED 720p BluRay x264 .



Download Only God Forgives 2013 BluRay 1080p 10bit 5.1 x265 HEVC-Qman . Stream size : 170 MiB (12%) Language . Only God Forgives 2013 LIMITED 720p BluRay x264 .

4bbbd60035
http://www.babyidea.fi/palstat/read.php?63,1180192
http://www.casinoexecutivenetwork.com/m/feedback/view/Heaven-DX11-Benchmark-Pro-3019
http://batershobutu.simplesite.com/433965920/5878315/posting/vicente-fernandez-mis-duetos-full-album-23
http://graph.org/The-Office-Us-Season-18-88-05-13
http://wortchodona-blog.logdown.com/posts/7665218-catwoman-theme-song-mp3-european-berber-batt
http://flatadocpen.xooit.biz/viewtopic.php?p=14
http://mc-battlepvp.forumprod.com/viewtopic.php?f=2&t=86
http://coanisuchvoi.leforum.cc/viewtopic.php?p=14
http://bitbucket.org/taskheartringbut/uwimlysport/issues/184/windows81x32bitx64bitenglishuspreactivated
http://docnapesof.guildwork.com/forum/threads/5af84ab6002aa80d69227681-horriblesubs-naruto-shippuuden-252-1080p-23

← UNLIMITED POWER.pdf 1 18 theft desesperate du Full Version IT (English) juanes parser perdid →